Shaitan (Saithan) (2018) 720p Hindi Dubbed HDRip x264 AAC 900MB ESubs [MovCr]

seeders: 92
leechers: 98
updated:
Added by ictv in Movies > HD

Download Fast Safe Anonymous
movies, software, shows...

Files

  • www.MovCr.com - Shaitan (Saithan) (2017) 720p Hindi Dubbed HDRip x264 AAC 900MB ESubs [MovCr].mkv (892.6 MB)

Description

Our Site www.movcr.com


Shaitan (Saithan) (2018) 720p Hindi Dubbed HDRip x264 AAC 900MB ESubs [MovCr]




http://www.imdb.com/title/tt6286666/




General
Unique ID : 88928292440967375967766851653318601524 (0x42E6F75465562CBAB5B0A4355595EB34)
Complete name : www.MovCr.com - Shaitan (Saithan) (2017) 720p Hindi Dubbed HDRip x264 AAC 900MB ESubs [MovCr].mkv
Format : Matroska
Format version : Version 4 / Version 2
File size : 893 MiB
Duration : 1 h 50 min
Overall bit rate : 1 128 kb/s
Movie name : www.MovCr.com
Encoded date : UTC 2018-09-09 02:48:11
Writing application : mkvmerge v26.0.0 ('In The Game') 64-bit
Writing library : libebml v1.3.6 + libmatroska v1.4.9

Video
ID : 1
Format : AVC
Format/Info : Advanced Video Codec
Format profile : [email protected]
Format settings : CABAC / 5 Ref Frames
Format settings, CABAC : Yes
Format settings, RefFrames : 5 frames
Codec ID : V_MPEG4/ISO/AVC
Duration : 1 h 50 min
Bit rate : 1 009 kb/s
Width : 1 280 pixels
Height : 548 pixels
Display aspect ratio : 2.35:1
Frame rate mode : Constant
Frame rate : 25.000 FPS
Color space : YUV
Chroma subsampling : 4:2:0
Bit depth : 8 bits
Scan type : Progressive
Bits/(Pixel*Frame) : 0.058
Stream size : 791 MiB (89%)
Title : www.MovCr.com
Writing library : x264 core 155 r2901 7d0ff22
Encoding settings : cabac=1 / ref=5 / deblock=1:0:0 / analyse=0x3:0x113 / me=hex / subme=8 / psy=1 / psy_rd=1.00:0.00 / mixed_ref=1 / me_range=16 / chroma_me=1 / trellis=2 / 8x8dct=1 / cqm=0 / deadzone=21,11 / fast_pskip=1 / chroma_qp_offset=-2 / threads=12 / lookahead_threads=2 / sliced_threads=0 / nr=0 / decimate=1 / interlaced=0 / bluray_compat=0 / constrained_intra=0 / bframes=3 / b_pyramid=2 / b_adapt=1 / b_bias=0 / direct=3 / weightb=1 / open_gop=0 / weightp=2 / keyint=250 / keyint_min=25 / scenecut=40 / intra_refresh=0 / rc_lookahead=50 / rc=abr / mbtree=1 / bitrate=1009 / ratetol=1.0 / qcomp=0.60 / qpmin=0 / qpmax=69 / qpstep=4 / vbv_maxrate=25000 / vbv_bufsize=31250 / nal_hrd=none / filler=0 / ip_ratio=1.40 / aq=1:1.00
Default : Yes
Forced : No
Color range : Limited
Color primaries : BT.709
Transfer characteristics : BT.709
Matrix coefficients : BT.709

Audio
ID : 2
Format : AAC
Format/Info : Advanced Audio Codec
Format profile : LC
Codec ID : A_AAC-2
Duration : 1 h 50 min
Bit rate : 126 kb/s
Channel(s) : 2 channels
Channel positions : Front: L R
Sampling rate : 44.1 kHz
Frame rate : 43.066 FPS (1024 SPF)
Compression mode : Lossy
Stream size : 99.4 MiB (11%)
Title : www.MovCr.com
Language : Hindi
Default : Yes
Forced : No

Text
ID : 3
Format : UTF-8
Codec ID : S_TEXT/UTF8
Codec ID/Info : UTF-8 Plain Text
Duration : 1 h 49 min
Bit rate : 56 b/s
Count of elements : 1367
Stream size : 44.9 KiB (0%)
Title : www.MovCr.com
Language : English
Default : Yes
Forced : No














Download torrent
892.6 MB
seeders:92
leechers:98
Shaitan (Saithan) (2018) 720p Hindi Dubbed HDRip x264 AAC 900MB ESubs [MovCr]


Trackers

tracker name
udp://tracker.coppersurfer.tk:6969/announce
udp://tracker.opentrackr.org:1337/announce
udp://tracker.leechers-paradise.org:6969/announce
udp://9.rarbg.to:2800/announce
udp://9.rarbg.to:2800/announce
udp://eddie4.nl:6969/announce
udp://9.rarbg.to:2800/announce
udp://9.rarbg.to:2800/announce
udp://tracker.doko.moe:6969/announce
udp://tracker.doko.moe:6969/announce
udp://thetracker.org:80/announce
udp://thetracker.org:80/announce
udp://bt.xxx-tracker.com:2710/announce
udp://bt.xxx-tracker.com:2710/announce
udp://tracker.vanitycore.co:6969/announce
udp://tracker.vanitycore.co:6969/announce
udp://tracker.tiny-vps.com:6969/announce
udp://tracker.leechers-paradise.org:6969/announce
udp://tracker.tiny-vps.com:6969/announce
udp://tracker.opentrackr.org:1337/announce
udp://tracker.coppersurfer.tk:6969/announce
udp://open.stealth.si:80/announce
udp://tracker.leechers-paradise.org:6969/announce
udp://inferno.demonoid.pw:3418/announce
udp://tracker.opentrackr.org:1337/announce
udp://retracker.lanta-net.ru:2710/announce
udp://peerfect.org:6969/announce
udp://tracker.coppersurfer.tk:6969/announce
udp://tracker.swateam.org.uk:2710/announce
udp://open.stealth.si:80/announce
udp://inferno.demonoid.pw:3418/announce
udp://retracker.lanta-net.ru:2710/announce
udp://peerfect.org:6969/announce
udp://tracker.swateam.org.uk:2710/announce
µTorrent compatible trackers list

Download torrent
892.6 MB
seeders:92
leechers:98
Shaitan (Saithan) (2018) 720p Hindi Dubbed HDRip x264 AAC 900MB ESubs [MovCr]


Torrent hash: CCBF0720D797F89488AFC9A9695967620333071E