The Hunger Games-Mockingjay Part 2 2015 720p HD-TS x264 AC3 HQ Hive-CM8

seeders: 9
leechers: 2
updated:

Download Fast Safe Anonymous
movies, software, shows...
Summary:

With the nation of Panem in a full scale war, Katniss confronts President Snow in the final showdown. Teamed with a group of her closest friends – including Gale, Finnick, and Peeta – Katniss goes off on a mission with the unit from District 13 as they risk their lives to stage an assassination attempt on President Snow who has become increasingly obsessed with destroying her. The mortal traps, enemies, and moral choices that await Katniss will challenge her more than any arena she faced in The Hunger Games.

Files

  • sample.mkv (30.7 MB)
  • The.Hunger.Games-Mockingjay.Part.2.2015.720p.HD-TS.x264.AC3.HQ.Hive-CM8.mkv (3.7 GB)
  • The.Hunger.Games-Mockingjay.Part.2.2015.720p.HD-TS.x264.AC3.HQ.Hive-CM8.nfo (5.1 KB)

Description

The Hunger Games-Mockingjay Part 2 2015 720p HD-TS x264 AC3 HQ Hive-CM8




The.Hunger.Games-Mockingjay.Part.2.2015.720p.HD-TS.x264.AC3.HQ.Hive-CM8

Thx Hive

CM8 Doing It Right The First Time

Sources:

Video: Italian 1080p Incoming
Audio: Sweet Line Big Thx to S4NDM4N
big thx guys

Notes:

Very nice quality video as usual,no movements, no flicker, was cammed a bit too much to the right side, but will do just fine

Encode:

Movie had cpl darker scenes and daylight were already perfect so i had to cut movie in 20 pieces and adjust brightness and contrast
as well as colours as needed. Movie itself is complete just no rolling endcredits

Audio as usual a nice line from S4NDM4N, just first 3mins have some slight distortions here and theire,the rest is just fine

got very nice
will do me till retail
enjoy

Video: 1280x720 @bitrate 4000-8000
Audio: English Stereo Line 2.0
Sample: yes included

http://www.imdb.com/title/tt1951266/

General
Complete name: The.Hunger.Games-Mockingjay.Part.2.2015.720p.HD-TS.x264.AC3.HQ.Hive-CM8.mkv
Format: Matroska
Format version: Version 2
File size: 3.72 GiB
Duration: 2h 5mn
Overall bit rate mode: Variable
Overall bit rate: 4 255 Kbps
Encoded date: UTC 2015-11-23 21:06:11
Writing application: mkvmerge v5.6.0 ('Kenya Kane') built on May 27 2012 16:44:04
Writing library: libebml v1.2.3 + libmatroska v1.3.0

Video
ID: 1
Format: AVC
Format/Info: Advanced Video Codec
Format profile: [email protected]
Format settings, CABAC: Yes
Format settings, ReFrames: 3 frames
Format settings, GOP: M=4, N=33
Muxing mode: Header stripping
Codec ID: V_MPEG4/ISO/AVC
Duration: 2h 5mn
Bit rate mode: Variable
Bit rate: 3 915 Kbps
Maximum bit rate: 8 000 Kbps
Width: 1 280 pixels
Height: 720 pixels
Display aspect ratio: 16:9
Frame rate mode: Constant
Frame rate: 29.970 fps
Standard: NTSC
Color space: YUV
Chroma subsampling: 4:2:0
Bit depth: 8 bits
Scan type: Progressive
Bits/(Pixel*Frame): 0.142
Stream size: 3.42 GiB (92%)
Language: English
Default: Yes
Forced: No
Color primaries: BT.709
Transfer characteristics: BT.709
Matrix coefficients: BT.709
Color range: Limited

Audio
ID: 2
Format: AC-3
Format/Info: Audio Coding 3
Mode extension: CM (complete main)
Format settings, Endianness: Big
Muxing mode: Header stripping
Codec ID: A_AC3
Duration: 2h 5mn
Bit rate mode: Constant
Bit rate: 256 Kbps
Channel(s): 2 channels
Channel positions: Front: L R
Sampling rate: 48.0 KHz
Bit depth: 16 bits
Compression mode: Lossy
Delay relative to video: 4ms
Stream size: 229 MiB (6%)
Language: English
Default: Yes
Forced: Yes

Screens:

Related Torrents

torrent name size uploader age seed leech
1 GB SaM 2
years
171 3
2.1 GB pinkihacks 1
year
127 24
3.5 GB CtrlSystem 2
years
56 15
1.7 GB Silmarillion 2
years
48 3
5.6 GB QxR 11
days
35 31


Download torrent
3.8 GB
seeders:9
leechers:2
The Hunger Games-Mockingjay Part 2 2015 720p HD-TS x264 AC3 HQ Hive-CM8


Trackers

tracker name
udp://tracker.blackunicorn.xyz:6969/announce
udp://coppersurfer.tk:6969/announce
udp://tracker.coppersurfer.tk:6969/announce
udp://glotorrents.pw:6969/announce
udp://9.rarbg.com:2710/announce
udp://9.rarbg.me:2710/announce
udp://open.demonii.com:1337/announce
udp://open.demonii.com:1337
udp://eddie4.nl:6969/announce
udp://tracker.leechers-paradise.org:6969/announce
udp://tracker.aletorrenty.pl:2710/announce
udp://p4p.arenabg.ch:1337/announce
udp://tracker.opentrackr.org:1337/announce
udp://torrent.gresille.org/announce
udp://tracker.openbittorrent.com:80/announce
µTorrent compatible trackers list

Download torrent
3.8 GB
seeders:9
leechers:2
The Hunger Games-Mockingjay Part 2 2015 720p HD-TS x264 AC3 HQ Hive-CM8


Torrent hash: 392ADBE57DB46CF82F34ED24DBF3494FDF72753E