The.Hunger.Games-Mockingjay.Part.2.2015.HD-TS.XVID.AC3.HQ.Hive-CM8

seeders: 48
leechers: 3
updated:

Download Fast Safe Anonymous
movies, software, shows...
Summary:

With the nation of Panem in a full scale war, Katniss confronts President Snow in the final showdown. Teamed with a group of her closest friends – including Gale, Finnick, and Peeta – Katniss goes off on a mission with the unit from District 13 as they risk their lives to stage an assassination attempt on President Snow who has become increasingly obsessed with destroying her. The mortal traps, enemies, and moral choices that await Katniss will challenge her more than any arena she faced in The Hunger Games.

Files

  • The.Hunger.Games-Mockingjay.Part.2.2015.HD-TS.XVID.AC3.HQ.Hive-CM8.avi (1.7 GB)
  • The.Hunger.Games-Mockingjay.Part.2.2015.HD-TS.XVID.AC3.HQ.Hive-CM8.nfo (4.6 KB)
  • Torrent Downloaded From ExtraTorrent.cc.txt (0.3 KB)
  • sample.avi (14.3 MB)

Description




http://www.imdb.com/title/tt1951266/


As the war of Panem escalates to the destruction of other districts by the Capitol, Katniss Everdeen, the reluctant leader of the rebellion, must bring together an army against President Snow, while all she holds dear hangs in the balance.

Director: Francis Lawrence
Writers: Peter Craig (screenplay), Danny Strong (screenplay)
Stars: Jennifer Lawrence, Josh Hutcherson, Liam Hemsworth
Genres: Adventure | Sci-Fi
Country: USA
Language: English


The.Hunger.Games-Mockingjay.Part.2.2015.HD-TS.XVID.AC3.HQ.Hive-CM8

Thx Hive

CM8 Doing It Right The First Time

Sources:

Video: Italian 1080p Incoming

Audio: Sweet Line Big Thx to S4NDM4N
big thx guys

Notes:

Very nice quality video as usual,no movements, no flicker, was cammed a bit too much to the right side, but will do just fine

Encode:

Movie had cpl darker scenes and daylight were already perfect so i had to cut movie in 20 pieces and adjust brightness and contrast
as well as colours as needed. Movie itself is complete just no rolling endcredits.

Audio as usual a nice line from S4NDM4N, just first 3mins have some slight distortions here and theire,the rest is just fine.


got very nice
will do me till retail
enjoy

SORRY WAYNE PLEASE COME BACK LOL

Video: 720x400 @bitrate 1700 2pass
Audio: English Stereo Line 2.0
Sample: yes included


http://www.imdb.com/title/tt1951266/



General
Complete name : The.Hunger.Games-Mockingjay.Part.2.2015.HD-TS.XVID.AC3.HQ.Hive-CM8.avi
Format : AVI
Format/Info : Audio Video Interleave
File size : 1.72 GiB
Duration : 2h 5mn
Overall bit rate : 1 967 Kbps
Writing application : Nandub v1.0rc2
Writing library : Nandub build 1853/release

Video
ID : 0
Format : MPEG-4 Visual
Format profile : Advanced [email protected]
Format settings, BVOP : 2
Format settings, QPel : Yes
Format settings, GMC : No warppoints
Format settings, Matrix : Default (H.263)
Muxing mode : Packed bitstream
Codec ID : XVID
Codec ID/Hint : XviD
Duration : 2h 5mn
Bit rate : 1 699 Kbps
Width : 720 pixels
Height : 400 pixels
Display aspect ratio : 16:9
Frame rate : 29.970 fps
Color space : YUV
Chroma subsampling : 4:2:0
Bit depth : 8 bits
Scan type : Progressive
Compression mode : Lossy
Bits/(Pixel*Frame) : 0.197
Stream size : 1.49 GiB (86%)
Writing library : XviD 1.2.1 (UTC 2008-12-04)

Audio
ID : 1
Format : AC-3
Format/Info : Audio Coding 3
Codec ID : 2000
Duration : 2h 5mn
Bit rate mode : Constant
Bit rate : 256 Kbps
Channel(s) : 2 channels
Sampling rate : 48.0 KHz
Compression mode : Lossy
Stream size : 229 MiB (13%)
Alignment : Split accross interleaves
Interleave, duration : 33 ms (1.00 video frame)
Interleave, preload duration : 500 ms


Greetz

SugarB,iNCOMiNG,Izzy,MenaceIISociety,jiinx,SiMPLE,CherryBomb,bigguy79
ranbailey,ViSiON,UnKnOwN,YanKeeS,COPYxRIGHT,THC,VAiN,ACAB,DRs
LKRG,Kingstoner,SiMPLE,TiTAN,cadance,PLAYNOW
Unevano,BigVik,Rapeseed,SAFC,goldadvance,KaN1vE,Pinnz,Wayne,HiGH
SeeN,jtr,Limey,ICONiK,TED,rkofan,mrtoke09
Mr Hive


Related Torrents

torrent name size uploader age seed leech
1 GB SaM 2
years
171 3
2.1 GB pinkihacks 1
year
127 24
3.5 GB CtrlSystem 2
years
56 15
5.6 GB QxR 11
days
35 31
3.8 GB Emily234 1
year
34 3


Download torrent
1.7 GB
seeders:48
leechers:3
The.Hunger.Games-Mockingjay.Part.2.2015.HD-TS.XVID.AC3.HQ.Hive-CM8


Trackers

tracker name
udp://tracker.coppersurfer.tk:6969
udp://tracker.leechers-paradise.org:6969/announce
udp://tracker.coppersurfer.tk:6969/announce
udp://eddie4.nl:6969/announce
udp://tracker.internetwarriors.net:1337
udp://tracker.sktorrent.net:6969
udp://tracker.openbittorrent.com:80/announce
udp://9.rarbg.me:2710/announce
udp://9.rarbg.to:2710/announce
udp://tracker.blackunicorn.xyz:6969/announce
udp://tracker.aletorrenty.pl:2710/announce
udp://torrent.gresille.org:80/announce
udp://tracker.opentrackr.org:1337/announce
udp://glotorrents.pw:6969/announce
udp://p4p.arenabg.ch:1337/announce
µTorrent compatible trackers list

Download torrent
1.7 GB
seeders:48
leechers:3
The.Hunger.Games-Mockingjay.Part.2.2015.HD-TS.XVID.AC3.HQ.Hive-CM8


Torrent hash: B8E72F07B3FE999A354B4020BD22C84FC9EA4910