The Hunger Games Mockingjay Part 2 2015 x264 720p Esub BluRay Dual Audio English Hindi GOPISAHI

seeders: 26
leechers: 13
updated:

Download Fast Safe Anonymous
movies, software, shows...
  • Downloads: 358
  • Language: English

Files

  • The Hunger Games Mockingjay Part 2 2015 x264 720p Esub BluRay Dual Audio English Hindi GOPISAHI.mkv (878.1 MB)

Description

http://www.gopisahi.pw/
General
Unique ID : 295440546209978219362105572962873493598 (0xDE43C78B8E1ADCC1C7E0DC24063DC85E)
Complete name : G:\film\dub\The Hunger Games\The Hunger Games Mockingjay Part 2 2015 x264 720p Esub BluRay Dual Audio English Hindi GOPISAHI.mkv
Format : Matroska
Format version : Version 4 / Version 2
File size : 878 MiB
Duration : 2 h 16 min
Overall bit rate : 896 kb/s
Movie name : The Hunger Games Mockingjay Part 2 2015 GOPISAHI
Encoded date : UTC 2019-01-17 06:52:13
Writing application : mkvmerge v19.0.0 ('Brave Captain') 32-bit
Writing library : libebml v1.3.5 + libmatroska v1.4.8

Video
ID : 1
Format : AVC
Format/Info : Advanced Video Codec
Format profile : [email protected]
Format settings : CABAC / 16 Ref Frames
Format settings, CABAC : Yes
Format settings, ReFrames : 16 frames
Codec ID : V_MPEG4/ISO/AVC
Duration : 2 h 16 min
Bit rate : 699 kb/s
Width : 1 280 pixels
Height : 534 pixels
Display aspect ratio : 2.40:1
Frame rate mode : Constant
Frame rate : 23.976 (24000/1001) FPS
Color space : YUV
Chroma subsampling : 4:2:0
Bit depth : 8 bits
Scan type : Progressive
Bits/(Pixel*Frame) : 0.043
Stream size : 684 MiB (78%)
Title : GOPISAHI
Writing library : x264 core 155 r2901 7d0ff22
Encoding settings : cabac=1 / ref=16 / deblock=1:-1:-1 / analyse=0x3:0x133 / me=umh / subme=10 / psy=1 / psy_rd=1.00:0.15 / mixed_ref=1 / me_range=24 / chroma_me=1 / trellis=2 / 8x8dct=1 / cqm=0 / deadzone=21,11 / fast_pskip=1 / chroma_qp_offset=-3 / threads=12 / lookahead_threads=2 / sliced_threads=0 / nr=0 / decimate=1 / interlaced=0 / bluray_compat=0 / constrained_intra=0 / bframes=8 / b_pyramid=2 / b_adapt=2 / b_bias=0 / direct=3 / weightb=1 / open_gop=0 / weightp=2 / keyint=240 / keyint_min=24 / scenecut=40 / intra_refresh=0 / rc_lookahead=60 / rc=2pass / mbtree=1 / bitrate=699 / ratetol=1.0 / qcomp=0.60 / qpmin=0 / qpmax=69 / qpstep=4 / cplxblur=20.0 / qblur=0.5 / vbv_maxrate=300000 / vbv_bufsize=300000 / nal_hrd=none / filler=0 / ip_ratio=1.40 / aq=1:1.00
Language : English
Default : Yes
Forced : No
Color range : Limited
Color primaries : BT.709
Transfer characteristics : BT.709
Matrix coefficients : BT.709

Audio #1
ID : 2
Format : AAC
Format/Info : Advanced Audio Codec
Format profile : LC
Codec ID : A_AAC-2
Duration : 2 h 16 min
Bit rate : 98.5 kb/s
Channel(s) : 2 channels
Channel positions : Front: L R
Sampling rate : 48.0 kHz
Frame rate : 46.875 FPS (1024 SPF)
Compression mode : Lossy
Delay relative to video : -42 ms
Stream size : 96.5 MiB (11%)
Title : GOPISAHI
Language : Hindi
Default : Yes
Forced : No

Audio #2
ID : 3
Format : AAC
Format/Info : Advanced Audio Codec
Format profile : LC
Codec ID : A_AAC-2
Duration : 2 h 16 min
Bit rate : 96.0 kb/s
Channel(s) : 2 channels
Channel positions : Front: L R
Sampling rate : 48.0 kHz
Frame rate : 46.875 FPS (1024 SPF)
Compression mode : Lossy
Delay relative to video : -42 ms
Stream size : 94.2 MiB (11%)
Title : GOPISAHI
Language : English
Default : No
Forced : No

Text
ID : 4
Format : UTF-8
Codec ID : S_TEXT/UTF8
Codec ID/Info : UTF-8 Plain Text
Duration : 2 h 4 min
Bit rate : 47 b/s
Count of elements : 1415
Stream size : 43.4 KiB (0%)
Title : GOPISAHI
Language : English
Default : Yes
Forced : No




Download torrent
878.1 MB
seeders:26
leechers:13
The Hunger Games Mockingjay Part 2 2015 x264 720p Esub BluRay Dual Audio English Hindi GOPISAHI


Trackers

tracker name
udp://tracker.coppersurfer.tk:6969/announce
http://tracker.internetwarriors.net:1337/announce
udp://tracker.opentrackr.org:1337/announce
udp://9.rarbg.to:2710/announce
udp://exodus.desync.com:6969/announce
udp://explodie.org:6969/announce
udp://tracker1.itzmx.com:8080/announce
udp://ipv4.tracker.harry.lu:80/announce
udp://denis.stalker.upeer.me:6969/announce
udp://tracker.torrent.eu.org:451/announce
udp://tracker.tiny-vps.com:6969/announce
udp://open.demonii.si:1337/announce
udp://tracker.port443.xyz:6969/announce
udp://thetracker.org:80/announce
udp://tracker.zer0day.to:1337/announce
udp://tracker.leechers-paradise.org:6969/announce
udp://coppersurfer.tk:6969/announce
µTorrent compatible trackers list

Download torrent
878.1 MB
seeders:26
leechers:13
The Hunger Games Mockingjay Part 2 2015 x264 720p Esub BluRay Dual Audio English Hindi GOPISAHI


Torrent hash: A0E34C8FE8FFD4ABEF991ED5B29CAFE65BBB1B37