The.Imitation.Game.2014.BluRay.720p.x264.{Dual.Audio}.[Hindi.Org-English].-.Hon3yHD

seeders: 31
leechers: 57
updated:

Download Fast Safe Anonymous
movies, software, shows...
Summary:

Based on the real life story of legendary cryptanalyst Alan Turing, the film portrays the nail-biting race against time by Turing and his brilliant team of code-breakers at Britain's top-secret Government Code and Cypher School at Bletchley Park, during the darkest days of World War II.

Files

The.Imitation.Game.2014.BluRay.720p.x264.{Dual.Audio}.[Hindi.Org-English].-.Hon3yHD
  • Hon3yHD.net - The.Imitation.Game.2014.BluRay.720p.x264.{Dual.Audio}.[Hindi.Org-English].-.Hon3yHD.mkv (1.2 GB)
  • Torrent Seed By www.cyber-planet.in.txt (0.1 KB)
  • Hon3yHD.net.txt (0.0 KB)

Description




http://www.imdb.com/title/tt2084970/

Format : Matroska
Format version : Version 4 / Version 2
File size : 1.23 GiB
Duration : 1 h 54 min
Overall bit rate : 1 536 kb/s
Movie name : .-.Hon3y

Video
ID : 1
Format : AVC
Format/Info : Advanced Video Codec
Format profile : [email protected]
Format settings : CABAC / 8 Ref Frames
Format settings, CABAC : Yes
Format settings, ReFrames : 8 frames
Codec ID : V_MPEG4/ISO/AVC
Duration : 1 h 54 min
Bit rate : 1 200 kb/s
Width : 1 280 pixels
Height : 536 pixels
Display aspect ratio : 2.40:1
Frame rate mode : Constant
Frame rate : 23.976 (24000/1001) FPS

Audio #1
ID : 2
Format : AAC
Format/Info : Advanced Audio Codec
Format profile : LC
Codec ID : A_AAC-2
Duration : 1 h 54 min
Bit rate : 160 kb/s
Channel(s) : 2 channels
Channel positions : Front: L R
Sampling rate : 48.0 kHz
Frame rate : 46.875 FPS (1024 SPF)
Compression mode : Lossy
Delay relative to video : -21 ms
Stream size : 131 MiB (10%)
Title : Stereo
Language : Hindi

Audio #2
ID : 3
Format : AAC
Format/Info : Advanced Audio Codec
Format profile : LC
Codec ID : A_AAC-2
Duration : 1 h 54 min
Bit rate : 160 kb/s
Channel(s) : 2 channels
Channel positions : Front: L R
Sampling rate : 48.0 kHz
Frame rate : 46.875 FPS (1024 SPF)
Compression mode : Lossy
Delay relative to video : -21 ms
Stream size : 131 MiB (10%)
Title : Stereo
Language : English

http://hon3yhd.net

Related Torrents

torrent name size uploader age seed leech
813.9 MB YIFY 3
years
508 31
1.8 GB YIFY 3
years
373 73
3.6 GB ShivaShanti2 2
years
38 3
2.9 GB Mikas 3
years
26 1
1.2 GB piratepedia 3
years
25 2


Download torrent
1.2 GB
seeders:31
leechers:57
The.Imitation.Game.2014.BluRay.720p.x264.{Dual.Audio}.[Hindi.Org-English].-.Hon3yHD


Trackers

tracker name
udp://tracker.coppersurfer.tk:6969/announce
udp://tracker.leechers-paradise.org:6969/announce
udp://tracker.pirateparty.gr:6969/announce
udp://tracker.coppersurfer.tk:6969
udp://eddie4.nl:6969/announce
udp://tracker.tiny-vps.com:6969/announce
udp://9.rarbg.me:2710/announce
udp://9.rarbg.to:2710/announce
udp://public.popcorn-tracker.org:6969/announce
udp://open.stealth.si:80/announce
udp://tracker.vanitycore.co:6969/announce
udp://ipv4.tracker.harry.lu:80/announce
udp://tracker.opentrackr.org:1337/announce
udp://bt.firebit.co.uk:6969/announce
udp://shadowshq.yi.org:6969/announce
µTorrent compatible trackers list

Download torrent
1.2 GB
seeders:31
leechers:57
The.Imitation.Game.2014.BluRay.720p.x264.{Dual.Audio}.[Hindi.Org-English].-.Hon3yHD


Torrent hash: 58D8735DED4B468ECE3A49C886A2D350BCFB5953