The Imitation Game (2014) DVDSCR XviD-MAXSPEED

seeders: 25
leechers: 2
updated:

Download Fast Safe Anonymous
movies, software, shows...
Summary:

Based on the real life story of legendary cryptanalyst Alan Turing, the film portrays the nail-biting race against time by Turing and his brilliant team of code-breakers at Britain's top-secret Government Code and Cypher School at Bletchley Park, during the darkest days of World War II.

Files

  • The Imitation Game (2014) DVDSCR XviD-MAXSPEED www.torentz.3xforum.ro.avi (1.2 GB)
  • sample.avi (5.6 MB)
  • screencaps.jpeg (548.7 KB)
  • The Imitation Game (2014) DVDSCR XviD-MAXSPEED.nfo (3.5 KB)

Description

http://torentz.3xforum.ro/post/3591/1/The_Imitation_Game_2014_DVDSCR_XviD-MAXSPEED/



Screens:






ScreenCaps:



Code:

The Imitation Game (2014) DVDSCR XviD-MAXSPEED
Format : AVI
Format/Info : Audio Video Interleave
Format profile : OpenDML
Format settings : rec
File size : 1.19 GiB
Duration : 1h 53mn
Overall bit rate : 1 501 Kbps
Writing application : VirtualDubMod 1.5.10.2 (build 2542/release)
Writing library : VirtualDubMod build 2542/release
Original source form : MAX TORRENTZ
Copyright : SIGISMUNT

Video
ID : 0
Format : MPEG-4 Visual
Format profile : Advanced [email protected]
Format settings, BVOP : 2
Format settings, QPel : No
Format settings, GMC : No warppoints
Format settings, Matrix : Default (H.263)
Codec ID : XVID
Codec ID/Hint : XviD
Duration : 1h 53mn
Bit rate : 1 303 Kbps
Width : 720 pixels
Height : 304 pixels
Display aspect ratio : 2.35:1
Frame rate : 29.970 fps
Color space : YUV
Chroma subsampling : 4:2:0
Bit depth : 8 bits
Scan type : Progressive
Compression mode : Lossy
Bits/(Pixel*Frame) : 0.199
Stream size : 1.04 GiB (87%)
Writing library : XviD 64

Audio
ID : 1
Format : AC-3
Format/Info : Audio Coding 3
Mode extension : CM (complete main)
Format settings, Endianness : Big
Codec ID : 2000
Duration : 1h 53mn
Bit rate mode : Constant
Bit rate : 192 Kbps
Channel(s) : 6 channels
Channel positions : Front: L C R, Side: L R, LFE
Sampling rate : 48.0 KHz
Bit depth : 16 bits
Compression mode : Lossy
Stream size : 156 MiB (13%)
Alignment : Aligned on interleaves
Interleave, duration : 64 ms (1.92 video frames)
Interleave, preload duration : 192 ms

Source: DVDSCR (perfect a/v/sync quality,sample included)
This torrent is not seedbox supported,please seed it to the MAX

Uploader Note: If you think image it's a little dark then VLC->Ctrl+E->Video Effects->
->Image adjust->Brightness->Close, simple as 1,2,3 so no complaints about this please,thanks

Note: If you have something to offer as early releases,seedboxes http://torentz.3xforum.ro

How To Get Your MAXSPEED (uTorrent)

Torrent Client - Preferences - Bandwidth - Number of connections - Set aprox. 500 for each
Torrent Client - Preferences - BiTorrent - Protocol Encryption - Forced
Bandwidth Allocation - High (Set download/upload limit - Unlimited)
Stop Other Active Torrents - Start downloading and wait for connections.
Enjoy and Seed for at least 1:1 ratio. Don't forget to say thanks/leave reviews.
If screens/Caps image host is dead googlesearch "release name"+"screens" or "sample".
Greets to all actual/future p2p/scene QUALITY groups and affiliate websites.
Don't trust IMDb robot or bad ratings,always watch some trailers first.
Ignore stupid comments/fake/mislabeled/no-DVDrips/CAM/TS/RAR uploads.
Please spread this release/torrent to your friends/forums/etc.
If you need translation subs visit some subtitles sites.
Report if you see online streaming or other spam links.
Recommended movie player VLC PLAYER.

Related Torrents

torrent name size uploader age seed leech
813.9 MB YIFY 3
years
508 31
1.8 GB YIFY 3
years
373 73
3.6 GB ShivaShanti2 2
years
38 3
1.2 GB Hon3yHD 5
months
31 57
2.9 GB Mikas 3
years
26 1


Download torrent
1.2 GB
seeders:25
leechers:2
The Imitation Game (2014) DVDSCR XviD-MAXSPEED


Trackers

tracker name
udp://open.demonii.com:1337/announce
udp://tracker.openbittorrent.com:80/announce
udp://10.rarbg.com/announce
udp://9.rarbg.com:2710/announce
udp://tracker.istole.it:80/announce
udp://tracker.coppersurfer.tk:6969/announce
udp://tracker.publicbt.com:80/announce
udp://ipv4.tracker.harry.lu:80/announce
udp://tracker.prq.to/announce
http://torrent.gresille.org/announce
udp://tracker.zond.org:80/announce
udp://tracker.token.ro:80/announce
udp://bt.rghost.net:80/announce
udp://inferno.demonoid.ph:3389/announce
udp://195.154.200.190:1337/announce
µTorrent compatible trackers list

Download torrent
1.2 GB
seeders:25
leechers:2
The Imitation Game (2014) DVDSCR XviD-MAXSPEED


Torrent hash: A959AF69EE64B82BCDD8DF379219692355D8C878